[ オンエアリストに戻る ]
TITLE "Heavy Metal Syndicate #818"
FILE "2006-10-15.mp3" WAVE
  TRACK 01 AUDIO
    TITLE "ALWAYS THE PRETENDERS"
    PERFORMER "EUROPE : Secret Society"
    INDEX 01 00:00:00

  TRACK 02 AUDIO
    TITLE "FALLING"
    PERFORMER "DREAM EVIL : United"
    INDEX 01 16:26:00

  TRACK 03 AUDIO
    TITLE "HEART OF THE DARKLANDS"
    PERFORMER "RHAPSODY OF FIRE : Triumph or Agony"
    INDEX 01 21:15:65

  TRACK 04 AUDIO
    TITLE "I SHALL NOT YIELD"
    PERFORMER "WUTHERING HEIGHTS : The Shadow Cabinet"
    INDEX 01 26:52:11

  TRACK 05 AUDIO
    TITLE "THE SHIFTER"
    PERFORMER "HAUNTED : The Dead Eye"
    INDEX 01 35:16:39

  TRACK 06 AUDIO
    TITLE "Classic rock: SCHOOL LOVE"
    PERFORMER "ANVIL : Hard 'n' Heavy"
    INDEX 01 52:49:06


SEO [PR] おまとめローン 冷え性対策 坂本龍馬 動画掲示板 レンタルサーバー SEO