[ オンエアリストに戻る ]
TITLE "Heavy Metal Syndicate #817"
FILE "2006-10-08.mp3" WAVE
  TRACK 01 AUDIO
    TITLE "THE VOICE COMMANDING YOU"
    PERFORMER "ANGRA : Aurora Consurgens"
    INDEX 01 00:00:00

  TRACK 02 AUDIO
    TITLE "THE TROOPER (Radio 1 'Legends' Session) (Live 2005)"
    PERFORMER "IRON MAIDEN : The Reincarnation of Benjamin Breeg (10" vinyl single)"
    INDEX 01 15:01:54

  TRACK 03 AUDIO
    TITLE "RUN TO THE HILLS (Radio 1 'Legends' Session) (Live 2005)"
    PERFORMER "IRON MAIDEN : The Reincarnation of Benjamin Breeg (10" vinyl single)"
    INDEX 01 18:58:09

  TRACK 04 AUDIO
    TITLE "Reissue: OVER YOU"
    PERFORMER "FAIR WARNING : Rainmaker (2006 reissue)"
    INDEX 01 26:20:62

  TRACK 05 AUDIO
    TITLE "Reissue: HOLD ME"
    PERFORMER "FAIR WARNING : Fair Warning (2006 reissue)"
    INDEX 01 29:36:69

  TRACK 06 AUDIO
    TITLE "YOU SUCK"
    PERFORMER "STRAPPING YOUNG LAD : The New Black (feat. Cam Kroetsch)"
    INDEX 01 34:54:38

  TRACK 07 AUDIO
    TITLE "BLACKEST EYES"
    PERFORMER "PORCUPINE TREE : In Absentia (released 2002)"
    INDEX 01 50:54:26


SEO [PR] おまとめローン 冷え性対策 坂本龍馬 動画掲示板 レンタルサーバー SEO