[ オンエアリストに戻る ]
TITLE "Heavy Metal Syndicate #816"
FILE "2006-10-01.mp3" WAVE
  TRACK 01 AUDIO
    TITLE "DEVIL'S GOT A NEW DISGUISE"
    PERFORMER "AEROSMITH : The Very Best of Aerosmith - Devil's Got a New Disguise"
    INDEX 01 00:00:00

  TRACK 02 AUDIO
    TITLE "SHORT FLIGHT TO MEXICO"
    PERFORMER "WINGER : IV"
    INDEX 01 15:39:39

  TRACK 03 AUDIO
    TITLE "IT'S NOT ME"
    PERFORMER "PAUL STANLEY : Live to Win"
    INDEX 01 19:31:39

  TRACK 04 AUDIO
    TITLE "TRIUMPH OR AGONY"
    PERFORMER "RHAPSODY OF FIRE : Triumph or Agony"
    INDEX 01 24:59:56

  TRACK 05 AUDIO
    TITLE "ENVY"
    PERFORMER "WUTHERING HEIGHTS : The Shadow Cabinet"
    INDEX 01 30:13:43

  TRACK 06 AUDIO
    TITLE "SONIC REBELLION"
    PERFORMER "VICIOUS RUMORS : Warball"
    INDEX 01 36:13:26

  TRACK 07 AUDIO
    TITLE "Classic rock: EL SALVADOR"
    PERFORMER "WHITE LION : Fight to Survive"
    INDEX 01 51:06:39


SEO [PR] おまとめローン 冷え性対策 坂本龍馬 動画掲示板 レンタルサーバー SEO