[ オンエアリストに戻る ]
TITLE "Heavy Metal Syndicate #815"
FILE "2006-09-24.mp3" WAVE
  TRACK 01 AUDIO
    TITLE "DEMON DESIRE"
    PERFORMER "WUTHERING HEIGHTS : The Shadow Cabinet"
    INDEX 01 00:00:00

  TRACK 02 AUDIO
    TITLE "THE COURSE OF NATURE"
    PERFORMER "ANGRA : The Course of Nature (single)"
    INDEX 01 14:16:46

  TRACK 03 AUDIO
    TITLE "OF ANCIENT WOUNDS"
    PERFORMER "KIUAS : Reformation"
    INDEX 01 18:31:32

  TRACK 04 AUDIO
    TITLE "GRINNIN"
    PERFORMER "BLACK CROWES : The Lost Crowes (The Band Sessions)"
    INDEX 01 24:17:67

  TRACK 05 AUDIO
    TITLE "RABID WOLVES (FOR CHRIST)"
    PERFORMER "NAPALM DEATH : Smear Campaign"
    INDEX 01 29:34:36

  TRACK 06 AUDIO
    TITLE "Introduction: HOLD ON, I'M COMIN'"
    PERFORMER "SAM & DAVE : Hold On, I'm Comin'"
    INDEX 01 50:54:23

  TRACK 07 AUDIO
    TITLE "LOOKIN' FOR A LOVE"
    PERFORMER "SAM MOORE with JON BON JOVI : Overnight Sensational"
    INDEX 01 52:47:50


SEO [PR] おまとめローン 冷え性対策 坂本龍馬 動画掲示板 レンタルサーバー SEO