[ オンエアリストに戻る ]
TITLE "Heavy Metal Syndicate #814"
FILE "2006-09-17.mp3" WAVE
  TRACK 01 AUDIO
    TITLE "FAITH - APATHY DIVINE PART I"
    PERFORMER "WUTHERING HEIGHTS : The Shadow Cabinet"
    INDEX 01 00:00:00

  TRACK 02 AUDIO
    TITLE "LIVE TO WIN"
    PERFORMER "PAUL STANLEY : Live to Win"
    INDEX 01 17:04:55

  TRACK 03 AUDIO
    TITLE "THIS IS MY HEART"
    PERFORMER "SUNSTORM : Sunstorm"
    INDEX 01 22:07:16

  TRACK 04 AUDIO
    TITLE "THRESHOLD"
    PERFORMER "HAMMERFALL : Threshold"
    INDEX 01 27:07:32

  TRACK 05 AUDIO
    TITLE "TO A CLOSE"
    PERFORMER "STEVE HACKETT : Wild Orchids"
    INDEX 01 34:56:16

  TRACK 06 AUDIO
    TITLE "Classic rock: SHOT IN THE DARK"
    PERFORMER "VOW WOW : III (Digitally remastered)"
    INDEX 01 52:40:19


SEO [PR] おまとめローン 冷え性対策 坂本龍馬 動画掲示板 レンタルサーバー SEO