[ オンエアリストに戻る ]
TITLE "Heavy Metal Syndicate #813"
FILE "2006-09-10.mp3" WAVE
  TRACK 01 AUDIO
    TITLE "YOUR GREAT ESCAPE"
    PERFORMER "WINGER : IV"
    INDEX 01 00:00:00

  TRACK 02 AUDIO
    TITLE "NEW RELIGION"
    PERFORMER "BLACK LABEL SOCIETY : Shot to Hell"
    INDEX 01 10:57:50

  TRACK 03 AUDIO
    TITLE "DECIMATOR"
    PERFORMER "STRAPPING YOUNG LAD : The New Black"
    INDEX 01 16:35:60

  TRACK 04 AUDIO
    TITLE "I'M ON FIRE"
    PERFORMER "BROTHER FIRETRIBE : Break Out / False Metal"
    INDEX 01 21:36:40

  TRACK 05 AUDIO
    TITLE "CAPILLARIAN CREST"
    PERFORMER "MASTODON : Blood Mountain"
    INDEX 01 28:33:25

  TRACK 06 AUDIO
    TITLE "MEDUSA"
    PERFORMER "BURNING IN HELL : Believe"
    INDEX 01 35:35:25

  TRACK 07 AUDIO
    TITLE "Classic rock: I CAN'T BREATHE ANYMORE"
    PERFORMER "DAVID GILMOUR : David Gilmour (Digitally remastered)"
    INDEX 01 52:06:37


SEO [PR] おまとめローン 冷え性対策 坂本龍馬 動画掲示板 レンタルサーバー SEO