[ オンエアリストに戻る ]
TITLE "Heavy Metal Syndicate #812"
FILE "2006-09-03.mp3" WAVE
  TRACK 01 AUDIO
    TITLE "THE PILGRIM"
    PERFORMER "IRON MAIDEN : A Matter of Life and Death"
    INDEX 01 00:00:00

  TRACK 02 AUDIO
    TITLE "LAND OF ILLUSION"
    PERFORMER "ZENO : Runway to the Gods"
    INDEX 01 12:15:72

  TRACK 03 AUDIO
    TITLE "FAME AND FORTUNE"
    PERFORMER "SUNSTORM : Sunstorm"
    INDEX 01 17:35:72

  TRACK 04 AUDIO
    TITLE "ONE NIGHT STAND"
    PERFORMER "MOTORHEAD : Kiss of Death"
    INDEX 01 22:56:23

  TRACK 05 AUDIO
    TITLE "GYPSY (OF A STRANGE AND DISTANT TIME)"
    PERFORMER "ROCKET SCIENTISTS : Revolution Road"
    INDEX 01 27:04:62

  TRACK 06 AUDIO
    TITLE "WARPED BEYOND LOGIC"
    PERFORMER "NAPALM DEATH : Smear Campaign"
    INDEX 01 33:00:62

  TRACK 07 AUDIO
    TITLE "Classic rock: PRIDE AND JOY"
    PERFORMER "COVERDALE・PAGE : Coverdale・Page"
    INDEX 01 52:24:22


SEO [PR] おまとめローン 冷え性対策 坂本龍馬 動画掲示板 レンタルサーバー SEO