[ オンエアリストに戻る ]
TITLE "Heavy Metal Syndicate #810"
FILE "2006-08-20.mp3" WAVE
  TRACK 01 AUDIO
    TITLE "ANTECHRIST"
    PERFORMER "VENOM : Metal Black"
    INDEX 01 00:00:00

  TRACK 02 AUDIO
    TITLE "SUCKER"
    PERFORMER "MOTORHEAD : Kiss of Death"
    INDEX 01 10:13:10

  TRACK 03 AUDIO
    TITLE "SKALDS AND SHADOWS"
    PERFORMER "BLIND GUARDIAN : A Twist in the Myth"
    INDEX 01 14:18:13

  TRACK 04 AUDIO
    TITLE "WELTSCHMERZ / SINK FAST, LET GO"
    PERFORMER "NAPALM DEATH : Smear Campaign"
    INDEX 01 20:13:00
    INDEX 02 21:41:17

  TRACK 05 AUDIO
    TITLE "THE WOLF IS LOOSE"
    PERFORMER "MASTODON : Blood Mountain"
    INDEX 01 27:21:56

  TRACK 06 AUDIO
    TITLE "REFUGEES (LONGING FOR PARADISE)"
    PERFORMER "ZENO : Runway to the Gods"
    INDEX 01 33:34:70

  TRACK 07 AUDIO
    TITLE "Classic rock: STAND UP AND SHOUT"
    PERFORMER "DIO : Holy Diver (Digitally remastered)"
    INDEX 01 52:09:02


SEO [PR] おまとめローン 冷え性対策 坂本龍馬 動画掲示板 レンタルサーバー SEO