[ オンエアリストに戻る ]
TITLE "Heavy Metal Syndicate #808"
FILE "2006-08-06.mp3" WAVE
  TRACK 01 AUDIO
    TITLE "SHADES OF BLUE"
    PERFORMER "ZENO : Runway to the Gods"
    INDEX 01 00:00:00

  TRACK 02 AUDIO
    TITLE "FALLING TO PIECES"
    PERFORMER "FIREWIND : Allegiance"
    INDEX 01 10:02:63

  TRACK 03 AUDIO
    TITLE "CONCRETE JUNGLE"
    PERFORMER "BLACK LABEL SOCIETY : Shot to Hell"
    INDEX 01 15:02:50

  TRACK 04 AUDIO
    TITLE "THE ANSWER LIES WITHIN (Live 2006)"
    PERFORMER "DREAM THEATER : Score"
    INDEX 01 20:34:40

  TRACK 05 AUDIO
    TITLE "PHANTOM SHUFFLE"
    PERFORMER "DEREK SHERINIAN : Blood of the Snake"
    INDEX 01 27:05:32

  TRACK 06 AUDIO
    TITLE "Message from Derek Sherinian"
    PERFORMER "DEREK SHERINIAN"
    INDEX 01 30:59:60

  TRACK 07 AUDIO
    TITLE "DO YOU LIKE IT"
    PERFORMER "RAIN : Stronger"
    INDEX 01 33:11:20

  TRACK 08 AUDIO
    TITLE "ORIGINAL FIRE"
    PERFORMER "AUDIOSLAVE : Revelations"
    INDEX 01 37:45:62

  TRACK 09 AUDIO
    TITLE "Classic rock: ALL NIGHT LONG (Live 1983)"
    PERFORMER "RAINBOW : Can't Let You Go (EP)"
    INDEX 01 49:46:60


SEO [PR] おまとめローン 冷え性対策 坂本龍馬 動画掲示板 レンタルサーバー SEO