[ オンエアリストに戻る ]
TITLE "Heavy Metal Syndicate #807"
FILE "2006-07-30.mp3" WAVE
  TRACK 01 AUDIO
    TITLE "FANFARES OF LOVE"
    PERFORMER "ZENO : Runway to the Gods"
    INDEX 01 00:00:00

  TRACK 02 AUDIO
    TITLE "THE REINCARNATION OF BENJAMIN BREEG (Rock Club version)"
    PERFORMER "IRON MAIDEN : A Matter of Life and Death"
    INDEX 01 13:55:41

  TRACK 03 AUDIO
    TITLE "I WALK BESIDE YOU (Live 2006)"
    PERFORMER "DREAM THEATER : Score"
    INDEX 01 27:10:20

  TRACK 04 AUDIO
    TITLE "SHE-WOLF (Live 2005)"
    PERFORMER "MEGADETH : Gigantour"
    INDEX 01 31:19:00

  TRACK 05 AUDIO
    TITLE "THE STENCH OF REDEMPTION"
    PERFORMER "DEICIDE : The Stench of Redemption"
    INDEX 01 36:30:33

  TRACK 06 AUDIO
    TITLE "I WANT TO TAKE YOU HIGHER"
    PERFORMER "STEVEN TYLER W/ ROBERT RANDOLPH : Different Strokes by Different Folks"
    INDEX 01 51:39:50


SEO [PR] おまとめローン 冷え性対策 坂本龍馬 動画掲示板 レンタルサーバー SEO