[ オンエアリストに戻る ]
TITLE "Heavy Metal Syndicate #806"
FILE "2006-07-23.mp3" WAVE
  TRACK 01 AUDIO
    TITLE "THIS WILL NEVER END"
    PERFORMER "BLIND GUARDIAN : A Twist in the Myth"
    INDEX 01 00:00:00

  TRACK 02 AUDIO
    TITLE "DREAMCHASER"
    PERFORMER "FIREWIND : Allegiance"
    INDEX 01 16:02:40

  TRACK 03 AUDIO
    TITLE "WORDS UNLEASHED"
    PERFORMER "LUNATICA : The Edge of Infinity"
    INDEX 01 22:14:20

  TRACK 04 AUDIO
    TITLE "FAHRENHEIT"
    PERFORMER "TEN : The Twilight Chronicles"
    INDEX 01 26:45:61

  TRACK 05 AUDIO
    TITLE "MIDNITE QUEEN"
    PERFORMER "BROTHER FIRETRIBE : Break Out / False Metal"
    INDEX 01 32:13:70

  TRACK 06 AUDIO
    TITLE "DEATHRASH LEGIONS"
    PERFORMER "DEATHCHAIN : Deathrash Assault"
    INDEX 01 36:37:73

  TRACK 07 AUDIO
    TITLE "Classic rock: IT'S TOO LATE"
    PERFORMER "CAROLE KING : Tapestry (Digitally remastered)"
    INDEX 01 52:31:50


SEO [PR] おまとめローン 冷え性対策 坂本龍馬 動画掲示板 レンタルサーバー SEO