[ オンエアリストに戻る ]
TITLE "Heavy Metal Syndicate #805"
FILE "2006-07-16.mp3" WAVE
  TRACK 01 AUDIO
    TITLE "TURN THE PAGE"
    PERFORMER "BLIND GUARDIAN : A Twist in the Myth"
    INDEX 01 00:00:00

  TRACK 02 AUDIO
    TITLE "BREAKING THE SILENCE"
    PERFORMER "FIREWIND : Allegiance (feat. Tara Teresa)"
    INDEX 01 10:58:03

  TRACK 03 AUDIO
    TITLE "THE WAY"
    PERFORMER "FAIR WARNING : Brother's Keeper"
    INDEX 01 16:08:10

  TRACK 04 AUDIO
    TITLE "BREAK OUT"
    PERFORMER "BROTHER FIRETRIBE : Break Out / False Metal"
    INDEX 01 22:43:50

  TRACK 05 AUDIO
    TITLE "THREE E'S FOR EDWARD"
    PERFORMER "PAUL GILBERT : Get Out of My Yard"
    INDEX 01 29:47:70

  TRACK 06 AUDIO
    TITLE "SKELETON DANCE (Live 2005)"
    PERFORMER "ARCH ENEMY : Live Apocalypse"
    INDEX 01 34:49:51

  TRACK 07 AUDIO
    TITLE "Classic rock: SEVEN SEAS OF RHYE"
    PERFORMER "QUEEN : Queen II (Digitally remastered)"
    INDEX 01 53:14:40


SEO [PR] おまとめローン 冷え性対策 坂本龍馬 動画掲示板 レンタルサーバー SEO