[ オンエアリストに戻る ]
TITLE "Heavy Metal Syndicate #804"
FILE "2006-07-09.mp3" WAVE
  TRACK 01 AUDIO
    TITLE "JIHAD"
    PERFORMER "SLAYER : Christ Illusion"
    INDEX 01 00:00:00

  TRACK 02 AUDIO
    TITLE "READY TO STRIKE"
    PERFORMER "FIREWIND : Allegiance"
    INDEX 01 10:36:59

  TRACK 03 AUDIO
    TITLE "OBLIVION"
    PERFORMER "TEN : The Twilight Chronicles"
    INDEX 01 16:09:27

  TRACK 04 AUDIO
    TITLE "NEMESIS (Live 2005)"
    PERFORMER "ARCH ENEMY : Live Apocalypse"
    INDEX 01 24:38:19

  TRACK 05 AUDIO
    TITLE "RETURN OF THE NEMESIS"
    PERFORMER "DEATHCHAIN : Deathrash Assault"
    INDEX 01 29:18:70

  TRACK 06 AUDIO
    TITLE "SHRIEK OF THE VENGEANCE"
    PERFORMER "GALNERYUS : Beyond the End of Despair..."
    INDEX 01 35:05:43

  TRACK 07 AUDIO
    TITLE "Classic rock: SISTER JANE"
    PERFORMER "TAI PHONG : Tai Phong"
    INDEX 01 50:31:33


SEO [PR] おまとめローン 冷え性対策 坂本龍馬 動画掲示板 レンタルサーバー SEO