[ オンエアリストに戻る ]
TITLE "Heavy Metal Syndicate #803"
FILE "2006-07-02.mp3" WAVE
  TRACK 01 AUDIO
    TITLE "ダジャレ大会 開会宣言 / 予選落ち作品"
    INDEX 01 00:00:00

  TRACK 02 AUDIO
    TITLE "PUSH ME ON / 第800回放送記念 メタル福袋争奪ダジャレ大会"
    PERFORMER "FAIR WARNING : Brother's Keeper"
    INDEX 01 10:23:24

  TRACK 03 AUDIO
    TITLE "Introduction: SYMPHONY NO.88 (Finale)"
    PERFORMER "Composed by JOSEPH HAYDN"
    INDEX 01 26:03:24

  TRACK 04 AUDIO
    TITLE "HAYDN SYMPHONY NO.88 FINALE / メタル福袋当選者発表"
    PERFORMER "PAUL GILBERT : Get Out of My Yard"
    INDEX 01 26:41:57

  TRACK 05 AUDIO
    TITLE "Classic rock: DREAM POLICE"
    PERFORMER "CHEAP TRICK : Dream Police (Digitally remastered)"
    INDEX 01 52:15:43


SEO [PR] おまとめローン 冷え性対策 坂本龍馬 動画掲示板 レンタルサーバー SEO