[ オンエアリストに戻る ]
TITLE "Heavy Metal Syndicate #802"
FILE "2006-06-25.mp3" WAVE
  TRACK 01 AUDIO
    TITLE "THE TWILIGHT MASQUERADE"
    PERFORMER "TEN : The Twilight Chronicles"
    INDEX 01 00:00:00

  TRACK 02 AUDIO
    TITLE "JOHNNY OR ELVIS?"
    PERFORMER "RICKY WARWICK : Love Many Trust Few (feat. Joe Elliott and Vivian Campbell)"
    INDEX 01 17:27:71

  TRACK 03 AUDIO
    TITLE "ONE MORE ALIBI"
    PERFORMER "RIOT : Army of One"
    INDEX 01 22:06:47

  TRACK 04 AUDIO
    TITLE "THE GETAWAY"
    PERFORMER "VOIVOD : Katorz"
    INDEX 01 29:10:59

  TRACK 05 AUDIO
    TITLE "EYES OF THE INSANE"
    PERFORMER "SLAYER : Christ Illusion"
    INDEX 01 36:06:62

  TRACK 06 AUDIO
    TITLE "Classic rock: KING OF TWILIGHT"
    PERFORMER "NEKTAR : A Tab in the Ocean (Digitally remastered)"
    INDEX 01 52:23:32


SEO [PR] おまとめローン 冷え性対策 坂本龍馬 動画掲示板 レンタルサーバー SEO