[ オンエアリストに戻る ]
TITLE "Heavy Metal Syndicate #801"
FILE "2006-06-18.mp3" WAVE
  TRACK 01 AUDIO
    TITLE "TELL ME LIES"
    PERFORMER "FAIR WARNING : Brother's Keeper"
    INDEX 01 00:00:00

  TRACK 02 AUDIO
    TITLE "ONE SINGLE BREATH"
    PERFORMER "BROTHER FIRETRIBE : One Single Breath (single)"
    INDEX 01 16:55:02

  TRACK 03 AUDIO
    TITLE "RIDE ON"
    PERFORMER "TRIBE OF GYPSIES : Dweller on the Threshold"
    INDEX 01 21:31:57

  TRACK 04 AUDIO
    TITLE "LEAVING ALL BEHIND"
    PERFORMER "CELLADOR : Enter Deception"
    INDEX 01 27:26:26

  TRACK 05 AUDIO
    TITLE "KING OF KINGS"
    PERFORMER "MOTORHEAD : WWE Wreckless Intent (Compilation)"
    INDEX 01 34:51:37

  TRACK 06 AUDIO
    TITLE "WAR NO MORE (Remixed)"
    PERFORMER "VIOLENT STORM : Storm Warning (feat. K.K. Downing)"
    INDEX 01 40:50:55

  TRACK 07 AUDIO
    TITLE "Classic rock: SMOKIN'"
    PERFORMER "BOSTON : Boston (Digitally remastered)"
    INDEX 01 51:51:11


SEO [PR] おまとめローン 冷え性対策 坂本龍馬 動画掲示板 レンタルサーバー SEO