[ オンエアリストに戻る ]
TITLE "Heavy Metal Syndicate #800"
FILE "2006-06-11.mp3" WAVE
  TRACK 01 AUDIO
    TITLE "藤井サプライズ"
    INDEX 01 00:00:00

  TRACK 02 AUDIO
    TITLE "CULT"
    PERFORMER "SLAYER : Christ Illusion"
    INDEX 01 05:35:70

  TRACK 03 AUDIO
    TITLE "AIN'T TALKIN' 'BOUT LOVE"
    PERFORMER "TRIBE OF GYPSIES : Dweller on the Threshold"
    INDEX 01 23:54:30

  TRACK 04 AUDIO
    TITLE "IT ALL FALLS DOWN"
    PERFORMER "RIOT : Army of One"
    INDEX 01 31:53:50

  TRACK 05 AUDIO
    TITLE "I AM THE LAW"
    PERFORMER "LEATHERWOLF : World Asylum"
    INDEX 01 37:17:60

  TRACK 06 AUDIO
    TITLE "Classic rock: DEE"
    PERFORMER "OZZY OSBOURNE : Blizzard of Ozz (Digitally remastered)"
    INDEX 01 53:42:70


SEO [PR] おまとめローン 冷え性対策 坂本龍馬 動画掲示板 レンタルサーバー SEO