[ オンエアリストに戻る ]
TITLE "Heavy Metal Syndicate #799"
FILE "2006-06-04.mp3" WAVE
  TRACK 01 AUDIO
    TITLE "GIRLS, GIRLS, GIRLS (Live 2005)"
    PERFORMER "MOTLEY CRUE : Carnival of Sins - Live"
    INDEX 01 00:00:00

  TRACK 02 AUDIO
    TITLE "THE CURSE OF CASTLE DRAGON"
    PERFORMER "PAUL GILBERT : Get Out of My Yard"
    INDEX 01 14:34:30

  TRACK 03 AUDIO
    TITLE "FIRE IN THE UNKNOWN (Remixed)"
    PERFORMER "VIOLENT STORM : Storm Warning (feat. Yngwie J. Malmsteen and Roy Z)"
    INDEX 01 19:57:70

  TRACK 04 AUDIO
    TITLE "HOUSE OF SLEEP"
    PERFORMER "AMORPHIS : Eclipse"
    INDEX 01 27:30:70

  TRACK 05 AUDIO
    TITLE "DEMOCRACY LESSON"
    PERFORMER "COLDSEED : Completion Makes the Tragedy"
    INDEX 01 31:40:70

  TRACK 06 AUDIO
    TITLE "A SIGN FAR BEYOND"
    PERFORMER "CELLADOR : Enter Deception"
    INDEX 01 37:04:70

  TRACK 07 AUDIO
    TITLE "Classic rock: THE LOCO-MOTION"
    PERFORMER "GRAND FUNK : Shinin' On (Digitally remastered)"
    INDEX 01 53:28:11


SEO [PR] おまとめローン 冷え性対策 坂本龍馬 動画掲示板 レンタルサーバー SEO