[ オンエアリストに戻る ]
TITLE "Heavy Metal Syndicate #798"
FILE "2006-05-29.mp3" WAVE
  TRACK 01 AUDIO
    TITLE "THE MYSTIC"
    PERFORMER "RIOT : Army of One"
    INDEX 01 00:00:00

  TRACK 02 AUDIO
    TITLE "ALL OF MY LOVE"
    PERFORMER "FAIR WARNING : Don't Keep Me Waiting (single)"
    INDEX 01 14:08:20

  TRACK 03 AUDIO
    TITLE "BAT COUNTRY"
    PERFORMER "AVENGED SEVENFOLD : City of Evil"
    INDEX 01 19:08:19

  TRACK 04 AUDIO
    TITLE "IRON HEAD"
    PERFORMER "IRON FIRE : Revenge"
    INDEX 01 26:09:30

  TRACK 05 AUDIO
    TITLE "TIME"
    PERFORMER "FREQUENCY : When Dream and Fate Collide"
    INDEX 01 31:30:60

  TRACK 06 AUDIO
    TITLE "CARPAL TUNNEL"
    PERFORMER "SHADOWS FALL : Fallout from the War"
    INDEX 01 37:51:20

  TRACK 07 AUDIO
    TITLE "Classic rock: UNDER MY WHEELS (Intro: GENE SIMMONS SPEAKS)"
    PERFORMER "ALICE COOPER with AXL ROSE, SLASH and IZZY : The Decline of Western Civilization Part II - The Metal Years (Soundtrack)"
    INDEX 01 52:09:20


SEO [PR] おまとめローン 冷え性対策 坂本龍馬 動画掲示板 レンタルサーバー SEO