[ オンエアリストに戻る ]
TITLE "Heavy Metal Syndicate #797"
FILE "2006-05-22.mp3" WAVE
  TRACK 01 AUDIO
    TITLE "ARMY OF ONE"
    PERFORMER "RIOT : Army of One"
    INDEX 01 00:00:00

  TRACK 02 AUDIO
    TITLE "DON'T KEEP ME WAITING"
    PERFORMER "FAIR WARNING : Don't Keep Me Waiting (single)"
    INDEX 01 09:53:00

  TRACK 03 AUDIO
    TITLE "NO MATTER WHAT"
    PERFORMER "DEF LEPPARD : Yeah!"
    INDEX 01 17:12:40

  TRACK 04 AUDIO
    TITLE "MISTY MORNING"
    PERFORMER "FIREBIRD : Hot Wings"
    INDEX 01 21:37:60

  TRACK 05 AUDIO
    TITLE "SAVE ME FROM MYSELF"
    PERFORMER "PHILIP SAYCE : Peace Machine"
    INDEX 01 25:04:70

  TRACK 06 AUDIO
    TITLE "SEIZE THE CALM"
    PERFORMER "SHADOWS FALL : Fallout from the War"
    INDEX 01 30:52:40

  TRACK 07 AUDIO
    TITLE "SACRIFICED FOR THE WEALTH"
    PERFORMER "CATARACT : Kingdom"
    INDEX 01 34:56:00

  TRACK 08 AUDIO
    TITLE "Classic rock: THE GOLDEN AGE OF ROCK 'N' ROLL"
    PERFORMER "MOTT THE HOOPLE : The Hoople (Digitally remastered)"
    INDEX 01 52:32:20


SEO [PR] おまとめローン 冷え性対策 坂本龍馬 動画掲示板 レンタルサーバー SEO