[ オンエアリストに戻る ]
TITLE "Heavy Metal Syndicate #796"
FILE "2006-05-15.mp3" WAVE
  TRACK 01 AUDIO
    TITLE "HELL RAISER"
    PERFORMER "DEF LEPPARD : Yeah!"
    INDEX 01 00:00:00

  TRACK 02 AUDIO
    TITLE "BLINDED IN CHAINS"
    PERFORMER "AVENGED SEVENFOLD : City of Evil"
    INDEX 01 14:27:61

  TRACK 03 AUDIO
    TITLE "THESE ARE THE TIMES"
    PERFORMER "HOUSE OF LORDS : World Upside Down"
    INDEX 01 22:14:47

  TRACK 04 AUDIO
    TITLE "SMOKING GUN"
    PERFORMER "OBSESSION : Carnival of Lies"
    INDEX 01 27:22:70

  TRACK 05 AUDIO
    TITLE "RESURRECTION CODE"
    PERFORMER "DISARMONIA MUNDI : Mind Tricks"
    INDEX 01 33:01:30

  TRACK 06 AUDIO
    TITLE "Classic rock: SWEET TALKIN' WOMAN"
    PERFORMER "ELECTRIC LIGHT ORCHESTRA : Out of the Blue (Digitally remastered)"
    INDEX 01 52:37:26


SEO [PR] おまとめローン 冷え性対策 坂本龍馬 動画掲示板 レンタルサーバー SEO