[ オンエアリストに戻る ]
TITLE "Heavy Metal Syndicate #795"
FILE "2006-05-07.mp3" WAVE
  TRACK 01 AUDIO
    TITLE "BURN IT DOWN"
    PERFORMER "AVENGED SEVENFOLD : City of Evil"
    INDEX 01 00:00:00

  TRACK 02 AUDIO
    TITLE "Special interview with David Coverdale"
    PERFORMER "WHITESNAKE"
    INDEX 01 11:18:30

  TRACK 03 AUDIO
    TITLE "Reissue: LOVE HUNTER (Live 1979)"
    PERFORMER "WHITESNAKE : Ready an' Willing (2006 reissue)"
    INDEX 01 15:30:10

  TRACK 04 AUDIO
    TITLE "ALL I WANT"
    PERFORMER "PHILIP SAYCE : Peace Machine"
    INDEX 01 23:45:10

  TRACK 05 AUDIO
    TITLE "THE BEGINNING (Re-Recorded)"
    PERFORMER "AS I LAY DYING : A Long March - The First Recordings"
    INDEX 01 30:15:40

  TRACK 06 AUDIO
    TITLE "KICKSTART MY HEART (Live 2005)"
    PERFORMER "MOTLEY CRUE : Carnival of Sins - Live"
    INDEX 01 33:53:50

  TRACK 07 AUDIO
    TITLE "Classic rock: MAMA WEER ALL CRAZEE NOW"
    PERFORMER "MAMA'S BOYS : Mama's Boys"
    INDEX 01 53:13:20


SEO [PR] おまとめローン 冷え性対策 坂本龍馬 動画掲示板 レンタルサーバー SEO