[ オンエアリストに戻る ]
TITLE "Heavy Metal Syndicate #794"
FILE "2006-04-30.mp3" WAVE
  TRACK 01 AUDIO
    TITLE "CAROUSEL"
    PERFORMER "FIREBIRD : Hot Wings"
    INDEX 01 00:00:00

  TRACK 02 AUDIO
    TITLE "LIVE WIRE (Live 2005)"
    PERFORMER "MOTLEY CRUE : Carnival of Sins - Live"
    INDEX 01 13:39:40

  TRACK 03 AUDIO
    TITLE "HOME SWEET HOME (Live 2005)"
    PERFORMER "MOTLEY CRUE : Carnival of Sins - Live"
    INDEX 01 20:15:02

  TRACK 04 AUDIO
    TITLE "ALL-SOLUTIONS"
    PERFORMER "MICHAEL KISKE : Kiske"
    INDEX 01 25:59:02

  TRACK 05 AUDIO
    TITLE "THIRD ACT"
    PERFORMER "EVIL MASQUERADE : Third Act"
    INDEX 01 30:55:29

  TRACK 06 AUDIO
    TITLE "VS MYSELF"
    PERFORMER "RUNIC : Liar Flags"
    INDEX 01 37:45:14

  TRACK 07 AUDIO
    TITLE "Classic rock: JULIA"
    PERFORMER "PAVLOV'S DOG : Pampered Menial"
    INDEX 01 52:56:69


SEO [PR] おまとめローン 冷え性対策 坂本龍馬 動画掲示板 レンタルサーバー SEO