[ オンエアリストに戻る ]
TITLE "Heavy Metal Syndicate #793"
FILE "2006-04-22.mp3" WAVE
  TRACK 01 AUDIO
    TITLE "Reissue: LOVE FOR SALE"
    PERFORMER "WHITESNAKE : Ready an' Willing (2006 reissue)"
    INDEX 01 00:00:00

  TRACK 02 AUDIO
    TITLE "BEAST AND THE HARLOT"
    PERFORMER "AVENGED SEVENFOLD : City of Evil"
    INDEX 01 11:58:24

  TRACK 03 AUDIO
    TITLE "CROSSROADS (Live 2004)"
    PERFORMER "RUSH : R30 - 30th Anniversary World Tour"
    INDEX 01 17:40:00

  TRACK 04 AUDIO
    TITLE "SCARED TO LIVE"
    PERFORMER "ANDERSEN / LAINE / READMAN : III"
    INDEX 01 22:33:13

  TRACK 05 AUDIO
    TITLE "BRING ON THE WORLD"
    PERFORMER "EVIL MASQUERADE : Third Act"
    INDEX 01 26:39:36

  TRACK 06 AUDIO
    TITLE "ONE FOOT IN THE GRAVE"
    PERFORMER "PHILIP SAYCE : Peace Machine"
    INDEX 01 36:40:51

  TRACK 07 AUDIO
    TITLE "Classic rock: OVER THE HILLS AND FAR AWAY"
    PERFORMER "GARY MOORE : Wild Frontier (Digitally remastered)"
    INDEX 01 50:36:44


SEO [PR] おまとめローン 冷え性対策 坂本龍馬 動画掲示板 レンタルサーバー SEO