[ オンエアリストに戻る ]
TITLE "Heavy Metal Syndicate #792"
FILE "2006-04-16.mp3" WAVE
  TRACK 01 AUDIO
    TITLE "LOOKS THAT KILL (Live 2005)"
    PERFORMER "MOTLEY CRUE : Carnival of Sins - Live"
    INDEX 01 00:00:00

  TRACK 02 AUDIO
    TITLE "INTRO (OVER THE RAINBOW) / KILL THE KING (Live 1976)"
    PERFORMER "RAINBOW : Deutschland Tournee 1976 - Cologne"
    INDEX 01 13:06:10

  TRACK 03 AUDIO
    TITLE "TOM SAWYER (Live 2004)"
    PERFORMER "RUSH : R30 - 30th Anniversary World Tour"
    INDEX 01 20:49:67

  TRACK 04 AUDIO
    TITLE "TRASHED AND SCATTERED"
    PERFORMER "AVENGED SEVENFOLD : City of Evil"
    INDEX 01 27:28:51

  TRACK 05 AUDIO
    TITLE "NAU"
    PERFORMER "RUNIC : Liar Flags"
    INDEX 01 34:31:01

  TRACK 06 AUDIO
    TITLE "MECHANISMS OF STANDSTILL"
    PERFORMER "NEAERA : Let the Tempest Come"
    INDEX 01 40:14:25

  TRACK 07 AUDIO
    TITLE "Classic rock: ROAD RACIN'"
    PERFORMER "RIOT : Narita"
    INDEX 01 51:33:58


SEO [PR] おまとめローン 冷え性対策 坂本龍馬 動画掲示板 レンタルサーバー SEO