[ オンエアリストに戻る ]
TITLE "Heavy Metal Syndicate #791"
FILE "2006-04-09.mp3" WAVE
  TRACK 01 AUDIO
    TITLE "NEVER SAY DIE"
    PERFORMER "TIPTON, ENTWISTLE & POWELL : Edge of the World"
    INDEX 01 00:00:00

  TRACK 02 AUDIO
    TITLE "Reissue: GIMME, GIMME, GIMME (Live 1982)"
    PERFORMER "BLACKFOOT : Highway Song Live"
    INDEX 01 13:33:71

  TRACK 03 AUDIO
    TITLE "Reissue: GOOD MORNING (Live 1982)"
    PERFORMER "BLACKFOOT : Highway Song Live"
    INDEX 01 17:43:61

  TRACK 04 AUDIO
    TITLE "KAMIKAZE TERRORIZER"
    PERFORMER "SODOM : Sodom"
    INDEX 01 23:11:22

  TRACK 05 AUDIO
    TITLE "NORTHER"
    PERFORMER "NORTHER : Till Death Unites Us"
    INDEX 01 28:13:45

  TRACK 06 AUDIO
    TITLE "OUR TRUTH"
    PERFORMER "LACUNA COIL : Karmacode"
    INDEX 01 34:54:11

  TRACK 07 AUDIO
    TITLE "Classic rock: CRAZY CRAZY NIGHTS"
    PERFORMER "KISS : Crazy Nights (Digitally remastered)"
    INDEX 01 52:04:65


SEO [PR] おまとめローン 冷え性対策 坂本龍馬 動画掲示板 レンタルサーバー SEO