[ オンエアリストに戻る ]
TITLE "Heavy Metal Syndicate #790"
FILE "2006-04-02.mp3" WAVE
  TRACK 01 AUDIO
    TITLE "STARGAZER (Live 1976)"
    PERFORMER "RAINBOW : Deutschland Tournee 1976 - Cologne"
    INDEX 01 00:00:00

  TRACK 02 AUDIO
    TITLE "FREE"
    PERFORMER "OSI : Free"
    INDEX 01 23:15:20

  TRACK 03 AUDIO
    TITLE "UNDER THE SUN / 森の木陰でクールビズ"
    PERFORMER "KORPIKLAANI : Tales Along This Road / 世にもコルピな物語"
    INDEX 01 30:03:34

  TRACK 04 AUDIO
    TITLE "THROWING MY LIFE AWAY"
    PERFORMER "NORTHER : Till Death Unites Us"
    INDEX 01 36:26:04

  TRACK 05 AUDIO
    TITLE "Classic rock: FOUR HORSEMEN"
    PERFORMER "GAMMA : Gamma 2"
    INDEX 01 51:33:24


SEO [PR] おまとめローン 冷え性対策 坂本龍馬 動画掲示板 レンタルサーバー SEO