[ オンエアリストに戻る ]
TITLE "Heavy Metal Syndicate #789"
FILE "2006-03-26.mp3" WAVE
  TRACK 01 AUDIO
    TITLE "GIVE BLOOD"
    PERFORMER "TIPTON, ENTWISTLE & POWELL : Edge of the World"
    INDEX 01 00:00:00

  TRACK 02 AUDIO
    TITLE "READY TO GO"
    PERFORMER "ROADSTAR : Grand Hotel"
    INDEX 01 12:26:36

  TRACK 03 AUDIO
    TITLE "MIDSUMMER NIGHT / 呑めや、歌えや、夏休み"
    PERFORMER "KORPIKLAANI : Tales Along This Road / 世にもコルピな物語"
    INDEX 01 17:57:26

  TRACK 04 AUDIO
    TITLE "SPACE OF DISGRACE"
    PERFORMER "TWILIGHTNING : Bedlam (EP)"
    INDEX 01 24:50:08

  TRACK 05 AUDIO
    TITLE "CITY OF GOD"
    PERFORMER "SODOM : Sodom"
    INDEX 01 30:15:70

  TRACK 06 AUDIO
    TITLE "24HOURHATE"
    PERFORMER "MAROON : When Worlds Collide"
    INDEX 01 36:44:00

  TRACK 07 AUDIO
    TITLE "Classic rock: HOT ROCKIN'"
    PERFORMER "JUDAS PRIEST : Point of Entry / The Essential Judas Priest"
    INDEX 01 53:01:11


SEO [PR] おまとめローン 冷え性対策 坂本龍馬 動画掲示板 レンタルサーバー SEO