[ オンエアリストに戻る ]
TITLE "Heavy Metal Syndicate #788"
FILE "2006-03-19.mp3" WAVE
  TRACK 01 AUDIO
    TITLE "SIGNS SAY GO"
    PERFORMER "QUEENSRYCHE : Operation: Mindcrime II"
    INDEX 01 00:00:00

  TRACK 02 AUDIO
    TITLE "Message from Michael Schenker"
    PERFORMER "MICHAEL SCHENKER GROUP"
    INDEX 01 10:07:37

  TRACK 03 AUDIO
    TITLE "THE RIDE"
    PERFORMER "MICHAEL SCHENKER GROUP : Tales of Rock 'n' Roll (feat. Jari Tiura)"
    INDEX 01 10:23:59

  TRACK 04 AUDIO
    TITLE "CONVICTED IN LIFE"
    PERFORMER "SEPULTURA : Dante XXI"
    INDEX 01 15:12:33

  TRACK 05 AUDIO
    TITLE "LAZARUS"
    PERFORMER "PORCUPINE TREE : Deadwing"
    INDEX 01 19:48:23

  TRACK 06 AUDIO
    TITLE "FIRE IN OUR HOUSE"
    PERFORMER "ASTRAL DOORS : Astralism"
    INDEX 01 24:33:57

  TRACK 07 AUDIO
    TITLE "LET IT ALL BLEED OUT"
    PERFORMER "ROB ZOMBIE : Educated Horses"
    INDEX 01 29:52:18

  TRACK 08 AUDIO
    TITLE "Classic rock: MAGIC MAN"
    PERFORMER "HEART : Dreamboat Annie (Digitally remastered)"
    INDEX 01 49:59:55


SEO [PR] おまとめローン 冷え性対策 坂本龍馬 動画掲示板 レンタルサーバー SEO