[ オンエアリストに戻る ]
TITLE "Heavy Metal Syndicate #787"
FILE "2006-03-12.mp3" WAVE
  TRACK 01 AUDIO
    TITLE "BURN (Live 2004)"
    PERFORMER "WHITESNAKE : Live - In The Still of the Night (CD)"
    INDEX 01 00:00:00

  TRACK 02 AUDIO
    TITLE "GIVE ME ALL YOUR LOVE (Live 2004)"
    PERFORMER "WHITESNAKE : Live - In The Still of the Night (CD)"
    INDEX 01 08:31:12

  TRACK 03 AUDIO
    TITLE "LAST MAN STANDING (Live 2005)"
    PERFORMER "BON JOVI : Have a Nice Day (Japan tour edition)"
    INDEX 01 20:35:63

  TRACK 04 AUDIO
    TITLE "YOU GIVE LOVE A BAD NAME (Live 2005)"
    PERFORMER "BON JOVI : Have a Nice Day (Japan tour edition)"
    INDEX 01 26:14:49

  TRACK 05 AUDIO
    TITLE "HAVE A NICE DAY (Live 2005)"
    PERFORMER "BON JOVI : Have a Nice Day (Japan tour edition)"
    INDEX 01 30:00:29

  TRACK 06 AUDIO
    TITLE "FRIENDLY FIRE"
    PERFORMER "TIPTON, ENTWISTLE & POWELL : Edge of the World"
    INDEX 01 36:17:51

  TRACK 07 AUDIO
    TITLE "HAPPY LITTLE BOOZER / 痛快!飲んだくれオヤジ"
    PERFORMER "KORPIKLAANI : Tales Along This Road / 世にもコルピな物語"
    INDEX 01 45:20:09

  TRACK 08 AUDIO
    TITLE "Classic rock: THIRTY PIECES OF SILVER"
    PERFORMER "PRAYING MANTIS : Cheated (single) (Digitally remastered)"
    INDEX 01 52:30:43


SEO [PR] おまとめローン 冷え性対策 坂本龍馬 動画掲示板 レンタルサーバー SEO