[ オンエアリストに戻る ]
TITLE "Heavy Metal Syndicate #785"
FILE "2006-02-26.mp3" WAVE
  TRACK 01 AUDIO
    TITLE "LIFE VACATION"
    PERFORMER "MICHAEL SCHENKER GROUP : Tales of Rock 'n' Roll (feat. Gary Barden)"
    INDEX 01 00:00:00

  TRACK 02 AUDIO
    TITLE "ROCK 'N' ROLL"
    PERFORMER "MICHAEL SCHENKER GROUP : Tales of Rock 'n' Roll (feat. Graham Bonnet)"
    INDEX 01 02:54:41

  TRACK 03 AUDIO
    TITLE "FOXY FOXY"
    PERFORMER "ROB ZOMBIE : Educated Horses"
    INDEX 01 20:10:40

  TRACK 04 AUDIO
    TITLE "VAMPIRA"
    PERFORMER "DEVIN TOWNSEND BAND : Synchestra"
    INDEX 01 24:20:40

  TRACK 05 AUDIO
    TITLE "I DIE IN DEGREES"
    PERFORMER "ALL THAT REMAINS : This Darkened Heart"
    INDEX 01 29:38:50

  TRACK 06 AUDIO
    TITLE "THIS LEGEND FOREVER"
    PERFORMER "RAUNCHY : Death Pop Romance"
    INDEX 01 35:58:03

  TRACK 07 AUDIO
    TITLE "BACK TO THE DRIVE"
    PERFORMER "SUZI QUATRO : Back to the Drive"
    INDEX 01 51:39:30


SEO [PR] おまとめローン 冷え性対策 坂本龍馬 動画掲示板 レンタルサーバー SEO