[ オンエアリストに戻る ]
TITLE "Heavy Metal Syndicate #784"
FILE "2006-02-19.mp3" WAVE
  TRACK 01 AUDIO
    TITLE "FLY"
    PERFORMER "BLIND GUARDIAN : Fly (single)"
    INDEX 01 00:00:00

  TRACK 02 AUDIO
    TITLE "SOUL SURVIVOR"
    PERFORMER "RAGE : Speak of the Dead"
    INDEX 01 15:01:00

  TRACK 03 AUDIO
    TITLE "Reissue: HEAVEN TONIGHT (Live 1989)"
    PERFORMER "YNGWIE MALMSTEEN : Trial by Fire: Live in Leningrad '89 (DVD)"
    INDEX 01 19:57:30

  TRACK 04 AUDIO
    TITLE "DRAW BLOOD"
    PERFORMER "WITCHERY : Don't Fear the Reaper"
    INDEX 01 26:40:11

  TRACK 05 AUDIO
    TITLE "STREAM OF TIME (Live 2005)"
    PERFORMER "DOUBLE DEALER : Fate & Destiny Tour 2005 - Live in Osaka"
    INDEX 01 31:55:30

  TRACK 06 AUDIO
    TITLE "ON AN ISLAND"
    PERFORMER "DAVID GILMOUR : On an Island"
    INDEX 01 51:28:63


SEO [PR] おまとめローン 冷え性対策 坂本龍馬 動画掲示板 レンタルサーバー SEO