[ オンエアリストに戻る ]
TITLE "Heavy Metal Syndicate #783"
FILE "2006-02-12.mp3" WAVE
  TRACK 01 AUDIO
    TITLE "Reissue: BLUE SUEDE SHOES"
    PERFORMER "HELLOWEEN : Pink Bubbles Go Ape (Expanded edition)"
    INDEX 01 00:00:00

  TRACK 02 AUDIO
    TITLE "MORTITURI TE SALUTANT / PRELUDE OF SOULS / INNOCENT"
    PERFORMER "RAGE : Speak of the Dead"
    INDEX 01 13:40:20
    INDEX 02 14:38:08
    INDEX 03 17:24:09

  TRACK 03 AUDIO
    TITLE "GOOD TIMES"
    PERFORMER "TOMMY LEE : TommyLand - The Ride"
    INDEX 01 23:23:60

  TRACK 04 AUDIO
    TITLE "UNDER THE ROSE (Live 2005)"
    PERFORMER "HIM : Killing Loneliness (EP)"
    INDEX 01 27:43:53

  TRACK 05 AUDIO
    TITLE "PRIMITIVE LIFE (Live 2005)"
    PERFORMER "DOUBLE DEALER : Fate & Destiny Tour 2005 - Live in Osaka"
    INDEX 01 34:09:10

  TRACK 06 AUDIO
    TITLE "Classic rock: WOMAN OF THE NIGHT"
    PERFORMER "URIAH HEEP : Fallen Angel (Digitally remastered, 1997)"
    INDEX 01 52:23:70


SEO [PR] おまとめローン 冷え性対策 坂本龍馬 動画掲示板 レンタルサーバー SEO