[ オンエアリストに戻る ]
TITLE "Heavy Metal Syndicate #782"
FILE "2006-02-05.mp3" WAVE
  TRACK 01 AUDIO
    TITLE "THE BUTLER"
    PERFORMER "TOMMY LEE : TommyLand - The Ride"
    INDEX 01 00:00:00

  TRACK 02 AUDIO
    TITLE "SISTER MARY"
    PERFORMER "TOMMY LEE : TommyLand - The Ride"
    INDEX 01 00:37:40

  TRACK 03 AUDIO
    TITLE "SOUL ON FIRE (Live 2005)"
    PERFORMER "HIM : Ozzfest - 10th Anniversary"
    INDEX 01 16:02:20

  TRACK 04 AUDIO
    TITLE "PARANOID (Live 2005)"
    PERFORMER "BLACK SABBATH : Ozzfest - 10th Anniversary"
    INDEX 01 19:58:30

  TRACK 05 AUDIO
    TITLE "BLACK WINGS"
    PERFORMER "TONY O'HORA : Escape into the Sun"
    INDEX 01 25:29:70

  TRACK 06 AUDIO
    TITLE "PLAGUE RIDER"
    PERFORMER "WITCHERY : Don't Fear the Reaper"
    INDEX 01 30:33:60

  TRACK 07 AUDIO
    TITLE "BLACK SHEEP (Live 2005)"
    PERFORMER "SONATA ARCTICA : For the Sake of Revenge"
    INDEX 01 37:15:20

  TRACK 08 AUDIO
    TITLE "Classic rock: YOU SHOOK ME"
    PERFORMER "JEFF BECK : Truth"
    INDEX 01 53:56:10


SEO [PR] おまとめローン 冷え性対策 坂本龍馬 動画掲示板 レンタルサーバー SEO