[ オンエアリストに戻る ]
TITLE "Heavy Metal Syndicate #781"
FILE "2006-01-29.mp3" WAVE
  TRACK 01 AUDIO
    TITLE "RAINMAKER (Live 2003)"
    PERFORMER "IRON MAIDEN : Death on the Road (DVD)"
    INDEX 01 00:00:00

  TRACK 02 AUDIO
    TITLE "STORMCROW"
    PERFORMER "JORN : The Duke"
    INDEX 01 15:08:30

  TRACK 03 AUDIO
    TITLE "Message from Thunder"
    PERFORMER "THUNDER"
    INDEX 01 19:01:00

  TRACK 04 AUDIO
    TITLE "STAY WITH ME BABY (Live 2004)"
    PERFORMER "THUNDER : Six Shooter (EP)"
    INDEX 01 20:28:20

  TRACK 05 AUDIO
    TITLE "ANCIENT WORDS WITHIN"
    PERFORMER "PYRAMAZE : Legend of the Bone Carver"
    INDEX 01 25:43:10

  TRACK 06 AUDIO
    TITLE "VANISHING LIGHT"
    PERFORMER "IN FLAMES : Come Clarity"
    INDEX 01 30:37:20

  TRACK 07 AUDIO
    TITLE "DAY 69"
    PERFORMER "DECAPITATED : Organic Hallucinosis"
    INDEX 01 35:17:62

  TRACK 08 AUDIO
    TITLE "Classic rock: GANGLAND"
    PERFORMER "TYGERS OF PAN TANG : Spellbound (Digitally remastered)"
    INDEX 01 51:39:40


SEO [PR] おまとめローン 冷え性対策 坂本龍馬 動画掲示板 レンタルサーバー SEO