[ オンエアリストに戻る ]
TITLE "Heavy Metal Syndicate #780"
FILE "2006-01-21.mp3" WAVE
  TRACK 01 AUDIO
    TITLE "I WANNA KNOW"
    PERFORMER "TERRA NOVA : Best of + 5"
    INDEX 01 00:00:00

  TRACK 02 AUDIO
    TITLE "DEAD END"
    PERFORMER "IN FLAMES : Come Clarity (feat. Lisa Miskovsky)"
    INDEX 01 13:02:74

  TRACK 03 AUDIO
    TITLE "OPTICAL ILLUSION"
    PERFORMER "TIME REQUIEM : Optical Illusion"
    INDEX 01 18:41:22

  TRACK 04 AUDIO
    TITLE "LAST STAND OF HUMANITY"
    PERFORMER "BOLT THROWER : Those Once Loyal"
    INDEX 01 38:48:30

  TRACK 05 AUDIO
    TITLE "Classic rock: THE SONG REMAINS THE SAME"
    PERFORMER "LED ZEPPELIN : Houses of the Holy (Digitally remastered)"
    INDEX 01 49:58:17


SEO [PR] おまとめローン 冷え性対策 坂本龍馬 動画掲示板 レンタルサーバー SEO