[ オンエアリストに戻る ]
TITLE "Heavy Metal Syndicate #779"
FILE "2006-01-15.mp3" WAVE
  TRACK 01 AUDIO
    TITLE "STREETS OF LONDON"
    PERFORMER "BLACKMORE'S NIGHT : Village Lanterne"
    INDEX 01 00:00:00

  TRACK 02 AUDIO
    TITLE "NATURAL THING (Live)"
    PERFORMER "JOHN NORUM : Optimus"
    INDEX 01 13:00:06

  TRACK 03 AUDIO
    TITLE "FOLLOW THE REAPER (Live 2005)"
    PERFORMER "CHILDREN OF BODOM : Are You Dead Yet? (Deluxe edition)"
    INDEX 01 17:01:22

  TRACK 04 AUDIO
    TITLE "CHAINS"
    PERFORMER "SHADOWMAN : Different Angles"
    INDEX 01 22:10:20

  TRACK 05 AUDIO
    TITLE "DON'T STOP BELIEVIN' (Live 1981)"
    PERFORMER "JOURNEY : Live in Houston 1981 - Escape Tour (CD)"
    INDEX 01 27:12:18

  TRACK 06 AUDIO
    TITLE "THE CURSE OF WOE"
    PERFORMER "DRAGONLORD : Black Wings of Destiny"
    INDEX 01 33:17:57

  TRACK 07 AUDIO
    TITLE "Classic rock: NO ONE LIKE YOU"
    PERFORMER "SCORPIONS : Blackout (Digitally remastered)"
    INDEX 01 52:13:42


SEO [PR] おまとめローン 冷え性対策 坂本龍馬 動画掲示板 レンタルサーバー SEO