[ オンエアリストに戻る ]
TITLE "Heavy Metal Syndicate #778"
FILE "2006-01-08.mp3" WAVE
  TRACK 01 AUDIO
    TITLE "TAKE THIS LIFE"
    PERFORMER "IN FLAMES : Come Clarity"
    INDEX 01 00:00:00

  TRACK 02 AUDIO
    TITLE "NAILED TO THE CROSS"
    PERFORMER "JOHN NORUM : Optimus"
    INDEX 01 10:18:57

  TRACK 03 AUDIO
    TITLE "THE MESSENGER"
    PERFORMER "BLACKMORE'S NIGHT : Village Lanterne"
    INDEX 01 17:25:34

  TRACK 04 AUDIO
    TITLE "IRON MAIDEN (Live 2003)"
    PERFORMER "IRON MAIDEN : Death on the Road (DVD)"
    INDEX 01 21:54:41

  TRACK 05 AUDIO
    TITLE "MOMENT OF TRUTH"
    PERFORMER "BOB CATLEY : Spirit of Man"
    INDEX 01 27:39:07

  TRACK 06 AUDIO
    TITLE "DIVINE CREATION OF VOID"
    PERFORMER "NON-HUMAN LEVEL : Non-Human Level"
    INDEX 01 35:37:41

  TRACK 07 AUDIO
    TITLE "OLD TOWN"
    PERFORMER "CORRS : Home"
    INDEX 01 52:27:65


SEO [PR] おまとめローン 冷え性対策 坂本龍馬 動画掲示板 レンタルサーバー SEO