[ オンエアリストに戻る ]
TITLE "Heavy Metal Syndicate #777"
FILE "2006-01-01.mp3" WAVE
  TRACK 01 AUDIO
    TITLE "Introduction: 春の海"
    PERFORMER "箏:宮城道雄 尺八:吉田晴風 : 春の海 (single)"
    INDEX 01 00:00:00

  TRACK 02 AUDIO
    TITLE "LIVING DEAD BEAT (Live 2005)"
    PERFORMER "CHILDREN OF BODOM : Are You Dead Yet? (Deluxe edition)"
    INDEX 01 04:06:68

  TRACK 03 AUDIO
    TITLE "AMY'S ON THE RUN (Live 2005)"
    PERFORMER "THUNDER : Six Shooter (EP)"
    INDEX 01 11:19:61

  TRACK 04 AUDIO
    TITLE "NEVER GET ENOUGH"
    PERFORMER "MOB : The Mob"
    INDEX 01 21:30:45

  TRACK 05 AUDIO
    TITLE "WHEEL IN THE SKY (Live 1981)"
    PERFORMER "JOURNEY : Live in Houston 1981 - Escape Tour (CD)"
    INDEX 01 28:14:69

  TRACK 06 AUDIO
    TITLE "BURNING HEART 2004"
    PERFORMER "VANDENBERG : The Definitive Vandenberg (released 2004)"
    INDEX 01 52:17:51


SEO [PR] おまとめローン 冷え性対策 坂本龍馬 動画掲示板 レンタルサーバー SEO