[ オンエアリストに戻る ]
TITLE "Heavy Metal Syndicate #776"
FILE "2005-12-25.mp3" WAVE
  TRACK 01 AUDIO
    TITLE "COME CLARITY"
    PERFORMER "IN FLAMES : Come Clarity"
    INDEX 01 00:00:00

  TRACK 02 AUDIO
    TITLE "MOND TANZ / CHILD IN TIME"
    PERFORMER "BLACKMORE'S NIGHT : Village Lanterne"
    INDEX 01 18:16:22

  TRACK 03 AUDIO
    TITLE "STREET OF DREAMS"
    PERFORMER "BLACKMORE'S NIGHT : Village Lanterne (feat. Joe Lynn Turner)"
    INDEX 01 24:23:74

  TRACK 04 AUDIO
    TITLE "I'M A LUCKY MAN"
    PERFORMER "THUNDER : Six Shooter (EP)"
    INDEX 01 31:56:41

  TRACK 05 AUDIO
    TITLE "THE LONER"
    PERFORMER "BRAND NEW SIN : Recipe for Disaster"
    INDEX 01 38:10:17

  TRACK 06 AUDIO
    TITLE "Classic rock: THE HOUSE OF THE RISING SUN"
    PERFORMER "ANIMALS : The Animals (US edition)"
    INDEX 01 50:46:57


SEO [PR] おまとめローン 冷え性対策 坂本龍馬 動画掲示板 レンタルサーバー SEO