[ オンエアリストに戻る ]
TITLE "Heavy Metal Syndicate #775"
FILE "2005-12-18.mp3" WAVE
  TRACK 01 AUDIO
    TITLE "LEECHES"
    PERFORMER "IN FLAMES : Come Clarity"
    INDEX 01 00:00:00

  TRACK 02 AUDIO
    TITLE "HATE CREW DEATHROLL (Live 2005)"
    PERFORMER "CHILDREN OF BODOM : Are You Dead Yet? (Deluxe edition)"
    INDEX 01 10:59:66

  TRACK 03 AUDIO
    TITLE "BREAKING THE LAW (Live 2005)"
    PERFORMER "JUDAS PRIEST : Rising in the East"
    INDEX 01 15:55:64

  TRACK 04 AUDIO
    TITLE "OUT OF VOGUE"
    PERFORMER "EDGUY : Rocket Ride"
    INDEX 01 20:15:24

  TRACK 05 AUDIO
    TITLE "OPERATION GROUND AND POUND"
    PERFORMER "DRAGONFORCE : Inhuman Rampage"
    INDEX 01 25:40:03

  TRACK 06 AUDIO
    TITLE "DRAINED"
    PERFORMER "FACE DOWN : The Will to Power"
    INDEX 01 35:03:37

  TRACK 07 AUDIO
    TITLE "Classic rock: PRINCESS OF THE NIGHT (Live 1981)"
    PERFORMER "SAXON : The Eagle Has Landed (Digitally remastered)"
    INDEX 01 52:10:64


SEO [PR] おまとめローン 冷え性対策 坂本龍馬 動画掲示板 レンタルサーバー SEO