[ オンエアリストに戻る ]
TITLE "Heavy Metal Syndicate #774 - ゲスト:初芝 清さん"
FILE "2005-12-11.mp3" WAVE
  TRACK 01 AUDIO
    TITLE "ゲストの紹介"
    INDEX 01 00:00:00

  TRACK 02 AUDIO
    TITLE "Introduction: FUEL"
    PERFORMER "METALLICA : Reload"
    INDEX 01 02:30:71

  TRACK 03 AUDIO
    TITLE "Request: THE END OF HEARTACHE"
    PERFORMER "KILLSWITCH ENGAGE : The End of Heartache"
    INDEX 01 13:04:17

  TRACK 04 AUDIO
    TITLE "Request: EMBODY THE INVISIBLE"
    PERFORMER "IN FLAMES : Colony"
    INDEX 01 22:21:17

  TRACK 05 AUDIO
    TITLE "Request: THE HELLION / ELECTRIC EYE"
    PERFORMER "JUDAS PRIEST : Screaming for Vengeance"
    INDEX 01 31:34:18

  TRACK 06 AUDIO
    TITLE "Request: HELLS BELLS"
    PERFORMER "AC/DC : Back in Black"
    INDEX 01 36:14:00

  TRACK 07 AUDIO
    TITLE "HOME SWEET HOME"
    PERFORMER "MOTLEY CRUE featuring CHESTER BENNINGTON : Home Sweet Home (download single)"
    INDEX 01 50:12:54


SEO [PR] おまとめローン 冷え性対策 坂本龍馬 動画掲示板 レンタルサーバー SEO