[ オンエアリストに戻る ]
TITLE "Heavy Metal Syndicate #773"
FILE "2005-12-04.mp3" WAVE
  TRACK 01 AUDIO
    TITLE "Request: BAD BOYS"
    PERFORMER "WHITESNAKE : Whitesnake"
    INDEX 01 00:00:00

  TRACK 02 AUDIO
    TITLE "IT'S ALRIGHT"
    PERFORMER "LAST AUTUMN'S DREAM : Winter in Paradise"
    INDEX 01 16:43:21

  TRACK 03 AUDIO
    TITLE "TELL THE TRUTH"
    PERFORMER "PLATITUDE : Silence Speaks"
    INDEX 01 30:14:05

  TRACK 04 AUDIO
    TITLE "POLITICS"
    PERFORMER "KORN : See You on the Other Side"
    INDEX 01 39:01:55

  TRACK 05 AUDIO
    TITLE "Classic rock: MR. CROWLEY"
    PERFORMER "OZZY OSBOURNE : Blizzard of Ozz (2002 reissue)"
    INDEX 01 50:46:28


SEO [PR] おまとめローン 冷え性対策 坂本龍馬 動画掲示板 レンタルサーバー SEO