[ オンエアリストに戻る ]
TITLE "Heavy Metal Syndicate #772"
FILE "2005-11-27.mp3" WAVE
  TRACK 01 AUDIO
    TITLE "ROCKET RIDE"
    PERFORMER "EDGUY : Rocket Ride"
    INDEX 01 00:00:00

  TRACK 02 AUDIO
    TITLE "ELEANOR RIGBY"
    PERFORMER "EDDIE OJEDA : Axes 2 Axes (feat. Dee Snider)"
    INDEX 01 13:05:40

  TRACK 03 AUDIO
    TITLE "LOST SOULS IN ENDLESS TIME"
    PERFORMER "DRAGONFORCE : Inhuman Rampage"
    INDEX 01 16:17:59

  TRACK 04 AUDIO
    TITLE "SLEEPING SUN (2005 version)"
    PERFORMER "NIGHTWISH : Highest Hopes - The Best of Nightwish (Deluxe edition)"
    INDEX 01 25:42:02

  TRACK 05 AUDIO
    TITLE "RAZE"
    PERFORMER "EXODUS : Shovel Headed Kill Machine"
    INDEX 01 30:08:13

  TRACK 06 AUDIO
    TITLE "PAINTING THE WIND"
    PERFORMER "REQUIEM : Requiem Forever"
    INDEX 01 36:17:73

  TRACK 07 AUDIO
    TITLE "Classic rock: ONLY YOU CAN ROCK ME"
    PERFORMER "UFO : Obsession (Digitally remastered)"
    INDEX 01 50:33:61


SEO [PR] おまとめローン 冷え性対策 坂本龍馬 動画掲示板 レンタルサーバー SEO