[ オンエアリストに戻る ]
TITLE "Heavy Metal Syndicate #771"
FILE "2005-11-20.mp3" WAVE
  TRACK 01 AUDIO
    TITLE "END OF THE LINE"
    PERFORMER "AKIRA KAJIYAMA + JOE LYNN TURNER : Fire Without Flame"
    INDEX 01 00:00:00

  TRACK 02 AUDIO
    TITLE "Burrn! Commercial: BURN"
    PERFORMER "MR. BIG (feat. Richie Kotzen)"
    INDEX 01 07:56:36

  TRACK 03 AUDIO
    TITLE "STORMING THE BURNING FIELDS (edit)"
    PERFORMER "DRAGONFORCE : Inhuman Rampage"
    INDEX 01 16:01:34

  TRACK 04 AUDIO
    TITLE "LOVE TO GO"
    PERFORMER "LAST AUTUMN'S DREAM : Winter in Paradise"
    INDEX 01 23:31:72

  TRACK 05 AUDIO
    TITLE "ONE WAY TICKET"
    PERFORMER "DARKNESS : One Way Ticket to Hell ...and Back"
    INDEX 01 36:14:28

  TRACK 06 AUDIO
    TITLE "Classic rock: SHAKE YOUR MONEYMAKER"
    PERFORMER "FLEETWOOD MAC : Fleetwood Mac (Digitally remastered)"
    INDEX 01 49:31:61

  TRACK 07 AUDIO
    TITLE "Classic rock: BLACK MAGIC WOMAN"
    PERFORMER "FLEETWOOD MAC : The Pious Bird of Good Omen / English Rose (Digitally remastered)"
    INDEX 01 52:25:69


SEO [PR] おまとめローン 冷え性対策 坂本龍馬 動画掲示板 レンタルサーバー SEO