[ オンエアリストに戻る ]
TITLE "Heavy Metal Syndicate #770"
FILE "2005-11-13.mp3" WAVE
  TRACK 01 AUDIO
    TITLE "THROUGH THE FIRE AND FLAMES (edit)"
    PERFORMER "DRAGONFORCE : Inhuman Rampage"
    INDEX 01 00:00:00

  TRACK 02 AUDIO
    TITLE "DEAD ALONE (Live 2004)"
    PERFORMER "IN FLAMES : Used & Abused in Live We Trust (CD 2: Live at Sticky Fingers)"
    INDEX 01 13:33:55

  TRACK 03 AUDIO
    TITLE "DEATHRIDER (Live 2005)"
    PERFORMER "ANTHRAX : Alive 2 (CD)"
    INDEX 01 17:29:30

  TRACK 04 AUDIO
    TITLE "WALK OF LIFE"
    PERFORMER "BAD HABIT : Hear-Say"
    INDEX 01 22:35:63

  TRACK 05 AUDIO
    TITLE "OUT OF CONTROL"
    PERFORMER "SHAKRA : Fall"
    INDEX 01 27:12:29

  TRACK 06 AUDIO
    TITLE "WITHOUT A TRACE"
    PERFORMER "SYMPHORCE : Godspeed"
    INDEX 01 32:20:51

  TRACK 07 AUDIO
    TITLE "Classic rock: DAYS GONE BY"
    PERFORMER "SLAUGHTER : The Wild Life (Digitally remastered)"
    INDEX 01 51:20:49


SEO [PR] おまとめローン 冷え性対策 坂本龍馬 動画掲示板 レンタルサーバー SEO