[ オンエアリストに戻る ]
TITLE "Heavy Metal Syndicate #769"
FILE "2005-11-06.mp3" WAVE
  TRACK 01 AUDIO
    TITLE "GIRLS LIKE THAT"
    PERFORMER "DEEP PURPLE : Rapture of the Deep"
    INDEX 01 00:00:00

  TRACK 02 AUDIO
    TITLE "WOMAN"
    PERFORMER "OZZY OSBOURNE : Under Cover"
    INDEX 01 09:15:15

  TRACK 03 AUDIO
    TITLE "PINBALL MAP (Live 2004)"
    PERFORMER "IN FLAMES : Used & Abused in Live We Trust (CD 1: Live at Hammersmith)"
    INDEX 01 14:26:60

  TRACK 04 AUDIO
    TITLE "KARMA'S MESSENGER"
    PERFORMER "EXODUS : Shovel Headed Kill Machine"
    INDEX 01 20:53:50

  TRACK 05 AUDIO
    TITLE "RIDE TO CHINON"
    PERFORMER "THY MAJESTIE : Jeanne d'Arc"
    INDEX 01 26:56:12

  TRACK 06 AUDIO
    TITLE "DESTINATION ROSWELL (Live 2005)"
    PERFORMER "LANA LANE : 10th Anniversary Concert (CD)"
    INDEX 01 34:43:74

  TRACK 07 AUDIO
    TITLE "Classic rock: GYPSY QUEEN PART I"
    PERFORMER "GYPSY : Gypsy"
    INDEX 01 50:22:65


SEO [PR] おまとめローン 冷え性対策 坂本龍馬 動画掲示板 レンタルサーバー SEO