[ オンエアリストに戻る ]
TITLE "Heavy Metal Syndicate #768"
FILE "2005-10-30.mp3" WAVE
  TRACK 01 AUDIO
    TITLE "SUNSHINE OF YOUR LOVE"
    PERFORMER "OZZY OSBOURNE : Under Cover"
    INDEX 01 00:00:00

  TRACK 02 AUDIO
    TITLE "PLEASURE DRONE"
    PERFORMER "HELLOWEEN : Keeper of the Seven Keys -The Legacy-"
    INDEX 01 12:19:07

  TRACK 03 AUDIO
    TITLE "RAISING HELL"
    PERFORMER "TONY MARTIN : Scream (feat. Cozy Powell)"
    INDEX 01 19:07:17

  TRACK 04 AUDIO
    TITLE "I.G.W.T."
    PERFORMER "STRYPER : Reborn"
    INDEX 01 23:25:47

  TRACK 05 AUDIO
    TITLE "POSSESSED BY POWER"
    PERFORMER "REQUIEM : Requiem Forever"
    INDEX 01 28:48:60

  TRACK 06 AUDIO
    TITLE "Classic rock: ROUNDABOUT"
    PERFORMER "YES : Fragile (Digitally remastered)"
    INDEX 01 46:39:46


SEO [PR] おまとめローン 冷え性対策 坂本龍馬 動画掲示板 レンタルサーバー SEO