[ オンエアリストに戻る ]
TITLE "Heavy Metal Syndicate #767"
FILE "2005-10-23.mp3" WAVE
  TRACK 01 AUDIO
    TITLE "SAME OLD SONG AND DANCE (Live 2002)"
    PERFORMER "AEROSMITH : Rockin' the Joint"
    INDEX 01 00:00:00

  TRACK 02 AUDIO
    TITLE "WALK THIS WAY (Live 2002)"
    PERFORMER "AEROSMITH : Rockin' the Joint"
    INDEX 01 06:01:61

  TRACK 03 AUDIO
    TITLE "CARNIVAL OF SOULS"
    PERFORMER "AKIRA KAJIYAMA + JOE LYNN TURNER : Fire Without Flame"
    INDEX 01 18:44:49

  TRACK 04 AUDIO
    TITLE "DREGS"
    PERFORMER "3 : Wake Pig"
    INDEX 01 25:23:56

  TRACK 05 AUDIO
    TITLE "METAL THRASHING MAD (Live 2005)"
    PERFORMER "ANTHRAX : Alive 2 (CD)"
    INDEX 01 30:15:03

  TRACK 06 AUDIO
    TITLE "ALIVE"
    PERFORMER "BAD HABIT : Hear-Say"
    INDEX 01 34:30:68

  TRACK 07 AUDIO
    TITLE "Classic rock: TICKET TO RIDE"
    PERFORMER "VANILLA FUDGE : Vanilla Fudge"
    INDEX 01 50:12:11


SEO [PR] おまとめローン 冷え性対策 坂本龍馬 動画掲示板 レンタルサーバー SEO