[ オンエアリストに戻る ]
TITLE "Heavy Metal Syndicate #766"
FILE "2005-10-16.mp3" WAVE
  TRACK 01 AUDIO
    TITLE "OLDE MILL INN"
    PERFORMER "BLACKMORE'S NIGHT : I'll Be There (Just Call My Name) (single)"
    INDEX 01 00:00:00

  TRACK 02 AUDIO
    TITLE "WILD BOYS"
    PERFORMER "HARDCORE SUPERSTAR : Hardcore Superstar"
    INDEX 01 08:37:68

  TRACK 03 AUDIO
    TITLE "POISON HEART"
    PERFORMER "HIM : Dark Light"
    INDEX 01 15:50:60

  TRACK 04 AUDIO
    TITLE "THE RIVER"
    PERFORMER "VISION DIVINE : The Perfect Machine"
    INDEX 01 21:24:09

  TRACK 05 AUDIO
    TITLE "INVITE IT"
    PERFORMER "ANNIHILATOR : Schizo Deluxe"
    INDEX 01 26:23:14

  TRACK 06 AUDIO
    TITLE "BLEEDING ME BLACK"
    PERFORMER "HELL WITHIN : Asylum of the Human Predator"
    INDEX 01 32:57:17

  TRACK 07 AUDIO
    TITLE "Classic rock: SORRY SEEMS TO BE THE HARDEST WORD"
    PERFORMER "ELTON JOHN : Blue Moves (Digitally remastered)"
    INDEX 01 52:09:54


SEO [PR] おまとめローン 冷え性対策 坂本龍馬 動画掲示板 レンタルサーバー SEO